Skip to main content

Oteil and the Peacemakers Live at Camp Kee-Wamee on 2013-09-14


Topics Wormfest 2013


Oteil Burbride, Scott Murawski & Kenwood Dennard
2013-09-14
Wormtown Music Festival
Camp KeeWanee
Greenfield, MA
Main Stage

DPA 4011 > V3 Digital + SBD > DR680 (24/48)
SDHC Card > Sound Forge Pro 10.0 (Mix, Normalize, Fades, resample iZotope 64-Bit SRC, dither iZotope MBIT+ Dither) > CD Wav (tracking) > TLH > Flac (level 8)
TS at front corner of FOH (ROC)/ORTF/approx. 8' high

Taped and Transferred by Brian V.

01.
02.
03.
04.
05.
06. Yellow Moon
07.
08.
09.


Collection OteilandthePeacemakers
Band/Artist Oteil and the Peacemakers
Venue Camp Kee-Wamee
Location Greenfield, MA

Source DPA 4011 > V3 Digital + SBD > DR680 (24/48)
Lineage SDHC Card > Sound Forge Pro 10.0 (Mix, Normalize, Fades, resample iZotope 64-Bit SRC, dither iZotope MBIT+ Dither) > CD Wav (tracking) > TLH > Flac (level 8)
Taped by Brian V.
Transferred by Brian V.


Notes

Thanks to everyone that put Wormtown Music Festival together and for the tapers spot.
***Support Bands That Allow Taping/Trading***

shntool output
length expanded size cdr WAVE problems fmt ratio filename
7:27.25 78909644 B --- -- ---xx flac 0.4909 bmd2013-09-14s1t01.flac
5:26.53 57631100 B --- -- ---xx flac 0.5591 bmd2013-09-14s1t02.flac
4:05.26 43279196 B --- -- ---xx flac 0.4629 bmd2013-09-14s1t03.flac
7:08.62 75645068 B --- -- ---xx flac 0.5069 bmd2013-09-14s1t04.flac
6:48.42 72070028 B --- -- ---xx flac 0.5089 bmd2013-09-14s1t05.flac
13:32.49 143352092 B --- -- ---xx flac 0.5083 bmd2013-09-14s1t06.flac
8:18.67 88004828 B --- -- ---xx flac 0.4428 bmd2013-09-14s1t07.flac
9:44.04 103027052 B --- -- ---xx flac 0.5281 bmd2013-09-14s1t08.flac
11:17.67 119580428 B --- -- ---xx flac 0.4737 bmd2013-09-14s1t09.flac
73:50.20 781499436 B 0.4976 (9 files)

Reviews

There are no reviews yet. Be the first one to write a review.
PEOPLE ALSO FOUND
Oteil and the Peacemakers
by Oteil and the Peacemakers
30
0
0
Source: DPA 4011 > V3 Digital + SBD > DR680 (24/48)
Oteil and the Peacemakers
by Oteil and the Peacemakers
77
2
0
Source: DPA 4011 > V3 Digital + SBD > DR680 (24/48)
Source: DPA 4011 > V3 Digital + SBD > R44 (24/48)
Community Audio
by Ready Set Flo
100
0
1
( 1 reviews )
Community Audio
by Cosmodrome
26
0
0
Community Audio
by Liquid Pocket
49
0
0
Source: AKG c214 + SBD (mono) > R44 (24/48)
Source: BSC1(hypers) > FR-2LE [BA TMod] (24/48)
Conehead Buddha
by Conehead Buddha
15
0
0
Source: AKG c214 > R44 (24/48)
The Jauntee
by The Jauntee
322
1
1
( 1 reviews )
Source: Oktava mk012 > V3 Digital + AKG c214 > R44 (24/96)
Club d'Elf
by Club d'Elf
31
0
0
Source: DPA 4011 > V3 Digital > R44 (24/96)